<?xml version="1.0" standalone="no"?>
<!DOCTYPE svg PUBLIC "-//W3C//DTD SVG 1.1//EN" "http://www.w3.org/Graphics/SVG/1.1/DTD/svg11.dtd" >
<svg xmlns="http://www.w3.org/2000/svg">
<metadata></metadata>
<defs>
<font id="ramseybold" horiz-adv-x="1286" >
<font-face units-per-em="2048" ascent="1591" descent="-457" />
<missing-glyph horiz-adv-x="442" />
<glyph horiz-adv-x="0" />
<glyph horiz-adv-x="682" />
<glyph horiz-adv-x="0" />
<glyph horiz-adv-x="0" />
<glyph unicode="&#xd;" horiz-adv-x="442" />
<glyph unicode=" "  horiz-adv-x="442" />
<glyph unicode="&#x09;" horiz-adv-x="442" />
<glyph unicode="&#xa0;" horiz-adv-x="442" />
<glyph unicode="!" horiz-adv-x="593" d="M92 1008v542h410v-542l-101 -545h-208zM104 0v317h383v-317h-383z" />
<glyph unicode="&#x22;" horiz-adv-x="997" d="M90 1030v520h375l-68 -520h-307zM565 1030v520h375l-68 -520h-307z" />
<glyph unicode="#" horiz-adv-x="1421" d="M63 362v267h250v276h-250v266h250v355h279v-355h237v355h279v-355h250v-266h-250v-276h250v-267h-250v-362h-279v362h-237v-362h-279v362h-250zM592 629h237v276h-237v-276z" />
<glyph unicode="$" horiz-adv-x="1323" d="M96 401v78l441 19v-125q0 -28 8.5 -34.5t29.5 -6.5h168q11 0 16.5 0.5t12.5 4.5t9.5 12.5t2.5 23.5v235q0 14 -2.5 22.5t-9.5 12t-12.5 4t-16.5 0.5h-325q-185 0 -251.5 66t-66.5 252v182q0 185 65.5 251t252.5 66h133v119h219v-119h131q187 0 253.5 -66t66.5 -251v-82 l-437 -21v134q0 14 -2.5 22.5t-9.5 12t-12.5 4t-16.5 0.5h-163q-15 0 -21.5 -1.5t-12 -10.5t-5.5 -27v-234q0 -18 5.5 -27t12 -10.5t21.5 -1.5h327q188 0 254 -65.5t66 -251.5v-187q0 -184 -67 -250.5t-253 -66.5h-139v-117h-217v117h-135q-186 0 -253 66.5t-67 250.5z" />
<glyph unicode="%" horiz-adv-x="1628" d="M86 1036v320q0 86 54 140t139 54h313q85 0 138.5 -54t53.5 -140v-320q0 -84 -54 -138t-138 -54h-313q-85 0 -139 54t-54 138zM354 -20l817 1597h105l-817 -1597h-105zM377 1085q0 -24 24 -24h68q25 0 25 24v226q0 11 -7.5 17.5t-17.5 6.5h-68q-24 0 -24 -24v-226z M844 193v319q0 85 53.5 139t138.5 54h316q83 0 136.5 -54t53.5 -139v-319q0 -85 -53.5 -139t-136.5 -54h-316q-85 0 -138.5 54t-53.5 139zM1137 240q0 -25 22 -25h70q22 0 22 25v225q0 24 -22 24h-70q-22 0 -22 -24v-225z" />
<glyph unicode="&#x26;" horiz-adv-x="1787" d="M102 307v195q0 155 53 226.5t189 86.5q-135 13 -188.5 85.5t-53.5 229.5v111q0 186 66.5 253t251.5 67h442q186 0 253 -67t67 -253v-197l-391 -20v188q0 14 -2.5 22.5t-9.5 12t-12.5 4t-16.5 0.5h-170q-10 0 -15 -0.5t-11.5 -4t-9.5 -12t-3 -22.5v-221q0 -30 13.5 -39.5 t35.5 -9.5h110v-256h-110q-14 0 -23.5 -2.5t-17.5 -13.5t-8 -31v-301q0 -14 3 -22.5t9.5 -12t11.5 -4t15 -0.5h170q11 0 16.5 0.5t12.5 4t9.5 12t2.5 22.5v194q0 180 80 249t270 69h205q11 0 16 0.5t11 4.5t8.5 12.5t2.5 23.5v70q0 19 -5.5 28.5t-11.5 10.5t-21 1h-97 l72 279h154q155 0 220.5 -72t65.5 -215v-135q0 -166 -64.5 -241.5t-221.5 -75.5h-207q-15 0 -21.5 -1.5t-12 -11t-5.5 -28.5v-193q0 -184 -67 -250.5t-253 -66.5h-489q-185 0 -251.5 66.5t-66.5 250.5z" />
<glyph unicode="'" horiz-adv-x="522" d="M90 1030v520h375l-68 -520h-307z" />
<glyph unicode="(" horiz-adv-x="673" d="M104 -31v1262q0 187 65.5 253t252.5 66h196v-215h-86q-11 0 -16.5 -0.5t-12 -4.5t-9 -12.5t-2.5 -23.5v-1390q0 -28 9 -34.5t31 -6.5h86v-213h-196q-186 0 -252 66.5t-66 252.5z" />
<glyph unicode=")" horiz-adv-x="673" d="M53 -137h86q11 0 16.5 0.5t12.5 4.5t9.5 12.5t2.5 23.5v1390q0 28 -9.5 34.5t-31.5 6.5h-86v215h199q187 0 252 -66t65 -253v-1262q0 -186 -65.5 -252.5t-251.5 -66.5h-199v213z" />
<glyph unicode="*" horiz-adv-x="868" d="M82 1274l65 178l193 -82v221h182v-221l199 82l67 -178l-202 -70l137 -182l-150 -113l-139 197l-137 -197l-152 113l138 182z" />
<glyph unicode="+" horiz-adv-x="1148" d="M53 651v267h387v405h267v-405h389v-267h-389v-409h-267v409h-387z" />
<glyph unicode="," horiz-adv-x="501" d="M76 0v317h350v-315l-233 -227h-105l135 225h-147z" />
<glyph unicode="-" horiz-adv-x="841" d="M90 641v287h662v-287h-662z" />
<glyph unicode="." horiz-adv-x="468" d="M76 0v317h317v-317h-317z" />
<glyph unicode="/" horiz-adv-x="813" d="M10 0l451 1550h342l-451 -1550h-342z" />
<glyph unicode="0" horiz-adv-x="1316" d="M102 307v936q0 185 66.5 251.5t253.5 66.5h473q187 0 253 -66.5t66 -251.5v-936q0 -185 -66.5 -251t-252.5 -66h-473q-186 0 -253 66.5t-67 250.5zM541 338q0 -14 2.5 -22.5t9.5 -12t12.5 -4t16.5 -0.5h153q11 0 16.5 0.5t12.5 4t9.5 12t2.5 22.5v874q0 14 -2.5 22.5 t-9.5 12t-12.5 4t-16.5 0.5h-153q-11 0 -16.5 -0.5t-12.5 -4t-9.5 -12t-2.5 -22.5v-874z" />
<glyph unicode="1" horiz-adv-x="643" d="M102 0v1546l439 23v-1569h-439z" />
<glyph unicode="2" horiz-adv-x="1318" d="M102 0v532q0 186 66.5 253t253.5 67h317q10 0 15 0.5t11.5 4t9.5 12t3 22.5v321q0 14 -3 22.5t-9.5 12t-11.5 4t-15 0.5h-157q-11 0 -16.5 -0.5t-12.5 -4t-9.5 -12t-2.5 -22.5v-143l-439 18v156q0 185 66.5 251.5t253.5 66.5h477q186 0 252 -66.5t66 -251.5v-303 q0 -191 -69 -270.5t-249 -79.5h-317q-11 0 -16.5 -0.5t-12.5 -4t-9.5 -12t-2.5 -22.5v-242h676v-309h-1115z" />
<glyph unicode="3" horiz-adv-x="1306" d="M88 307v154l440 20v-143q0 -14 2.5 -22.5t9.5 -12t12.5 -4t16.5 -0.5h158q15 0 21.5 1.5t12 10.5t5.5 27v289q0 18 -5.5 27t-12 10.5t-21.5 1.5h-338v245l342 330h-614v309h1087v-274l-391 -365h80q178 0 244.5 -70t66.5 -241v-293q0 -185 -66 -251t-251 -66h-477 q-186 0 -254 66.5t-68 250.5z" />
<glyph unicode="4" horiz-adv-x="1355" d="M78 385v197l168 968h418l-144 -940h225v940h439v-940h123v-225h-123v-385h-439v385h-667z" />
<glyph unicode="5" horiz-adv-x="1316" d="M102 307v158l437 20v-147q0 -14 3 -22.5t9.5 -12t11.5 -4t15 -0.5h157q11 0 16.5 0.5t12.5 4t9.5 12t2.5 22.5v332q0 28 -9.5 34.5t-31.5 6.5h-160q-12 0 -17.5 -1t-11 -9.5t-5.5 -24.5v-23h-439v897h1098v-309h-668v-338q58 76 222 76h149q177 0 245.5 -80.5 t68.5 -271.5v-320q0 -184 -67 -250.5t-253 -66.5h-479q-185 0 -250.5 66t-65.5 251z" />
<glyph unicode="6" horiz-adv-x="1318" d="M102 307v936q0 185 67 251.5t251 66.5h477q186 0 253 -66.5t67 -251.5v-147l-439 -21v137q0 14 -2.5 22.5t-9.5 12t-12.5 4t-16.5 0.5h-164q-13 0 -19.5 -1.5t-12.5 -10.5t-6 -27v-352q27 30 83.5 47t126.5 17h168q170 0 237 -83t67 -270v-264q0 -184 -67 -250.5 t-253 -66.5h-477q-185 0 -251.5 66.5t-66.5 250.5zM541 338q0 -14 3 -22.5t9.5 -12t11.5 -4t15 -0.5h157q11 0 16.5 0.5t12.5 4t9.5 12t2.5 22.5v297q0 28 -9.5 34.5t-31.5 6.5h-157q-12 0 -18.5 -1t-13.5 -9.5t-7 -24.5v-303z" />
<glyph unicode="7" horiz-adv-x="1064" d="M76 1241v309h921v-309l-430 -1241h-440l438 1241h-489z" />
<glyph unicode="8" horiz-adv-x="1318" d="M102 307v156q0 154 53.5 226t188.5 85q-136 15 -189 86t-53 227v156q0 185 67 251.5t253 66.5h477q185 0 251.5 -66.5t66.5 -251.5v-156q0 -155 -54 -227.5t-190 -85.5q136 -13 190 -84.5t54 -226.5v-156q0 -184 -66.5 -250.5t-251.5 -66.5h-477q-186 0 -253 66.5 t-67 250.5zM541 322q0 -14 2.5 -22.5t9.5 -12t12.5 -4t16.5 -0.5h157q15 0 21.5 1.5t12 10.5t5.5 27v276q0 29 -13 38t-36 9h-137q-15 0 -25 -2.5t-18 -13.5t-8 -31v-276zM541 954q0 -30 13.5 -39.5t37.5 -9.5h137q15 0 24.5 2.5t17 14t7.5 32.5v275q0 18 -5.5 27t-12 10.5 t-21.5 1.5h-157q-11 0 -16.5 -0.5t-12.5 -4t-9.5 -12t-2.5 -22.5v-275z" />
<glyph unicode="9" horiz-adv-x="1318" d="M102 307v142l439 20v-131q0 -14 2.5 -22.5t9.5 -12t12.5 -4t16.5 -0.5h163q10 0 15 0.5t11.5 4t9.5 12t3 22.5v352q-58 -61 -211 -61h-167q-170 0 -237 81.5t-67 268.5v264q0 185 67 251.5t253 66.5h477q185 0 251.5 -66.5t66.5 -251.5v-936q0 -184 -66.5 -250.5 t-251.5 -66.5h-477q-186 0 -253 66.5t-67 250.5zM541 915q0 -28 9.5 -34.5t31.5 -6.5h157q12 0 18.5 1t13.5 9.5t7 24.5v303q0 14 -3 22.5t-9.5 12t-11.5 4t-15 0.5h-157q-11 0 -16.5 -0.5t-12.5 -4t-9.5 -12t-2.5 -22.5v-297z" />
<glyph unicode=":" horiz-adv-x="501" d="M76 0v317h350v-317h-350zM76 840v317h350v-317h-350z" />
<glyph unicode=";" horiz-adv-x="501" d="M76 0v317h350v-315l-233 -227h-105l135 225h-147zM76 840v317h350v-317h-350z" />
<glyph unicode="&#x3c;" horiz-adv-x="980" d="M37 567v434l858 414v-346l-608 -287l608 -282v-344z" />
<glyph unicode="=" horiz-adv-x="1005" d="M90 410v268h825v-268h-825zM90 891v268h825v-268h-825z" />
<glyph unicode="&#x3e;" horiz-adv-x="980" d="M37 156v344l608 282l-608 287v346l858 -414v-434z" />
<glyph unicode="?" horiz-adv-x="1157" d="M53 1092v127q0 103 13 165.5t49.5 104t96.5 57t159 15.5h366q74 0 126 -7t90 -25.5t60.5 -43.5t35.5 -68.5t17.5 -93.5t4.5 -125v-231q0 -134 -25.5 -205t-81 -99t-159.5 -28h-90q-11 0 -16.5 -0.5t-12.5 -4.5t-9.5 -12.5t-2.5 -23.5v-131h-373v96q0 203 52.5 274.5 t201.5 71.5h70q15 0 21.5 1.5t12 10.5t5.5 27v266q0 28 -9 34.5t-30 6.5h-125q-15 0 -21.5 -1.5t-12 -11t-5.5 -28.5v-137zM297 0v317h381v-317h-381z" />
<glyph unicode="@" horiz-adv-x="1708" d="M86 199v1155q0 110 42.5 153t154.5 43h1140q113 0 156 -43t43 -153v-822q0 -87 -35 -121t-123 -34h-258q-103 0 -144.5 41t-41.5 147v359q0 18 -5.5 27t-12 10.5t-21.5 1.5h-242q-15 0 -21.5 -1.5t-12 -10.5t-5.5 -27v-297q0 -18 5.5 -27t12 -10.5t21.5 -1.5h279 l-82 -211h-309q-88 0 -123 34t-35 121v486q0 87 35 121.5t123 34.5h469q88 0 121.5 -34t33.5 -122v-424q0 -18 5.5 -27t12 -10.5t21.5 -1.5h96q15 0 21.5 1.5t12 10.5t5.5 27v692q0 29 -6 46t-20 24t-24.5 8.5t-31.5 1.5h-981q-20 0 -30.5 -1.5t-23.5 -8.5t-19 -24t-6 -46 v-1022q0 -29 6 -46t19 -24t23.5 -8.5t30.5 -1.5h652l-66 -184h-665q-111 0 -154 44.5t-43 154.5z" />
<glyph unicode="A" horiz-adv-x="1361" d="M29 0l282 1550h742l280 -1550h-459l-43 272h-301l-41 -272h-460zM561 512h242l-123 776z" />
<glyph unicode="B" horiz-adv-x="1343" d="M109 0v1550h809q184 0 250.5 -66t66.5 -251v-129q0 -155 -54 -227.5t-190 -85.5q136 -13 190 -85t54 -227v-162q0 -185 -66.5 -251t-250.5 -66h-809zM547 299h211q15 0 21.5 1.5t12 10.5t5.5 27v280q0 30 -13 40t-36 10h-201v-369zM547 922h201q15 0 24.5 2.5t17 13.5 t7.5 31v243q0 18 -5.5 27t-12 10.5t-21.5 1.5h-211v-329z" />
<glyph unicode="C" horiz-adv-x="1343" d="M109 324v903q0 188 67 261t252 73h490q183 0 250 -73t67 -261v-193l-438 -20v198q0 18 -5.5 27t-12 10.5t-21.5 1.5h-170q-11 0 -16.5 -0.5t-12.5 -4t-9.5 -12t-2.5 -22.5v-874q0 -14 2.5 -22.5t9.5 -12t12.5 -4t16.5 -0.5h170q15 0 21.5 1.5t12 10.5t5.5 27v180l438 -20 v-174q0 -187 -67.5 -260.5t-249.5 -73.5h-490q-182 0 -250.5 73.5t-68.5 260.5z" />
<glyph unicode="D" horiz-adv-x="1347" d="M109 0v1550h770q205 0 282.5 -77.5t77.5 -280.5v-834q0 -203 -78 -280.5t-282 -77.5h-770zM547 309h201q25 0 38 11t13 40v830q0 31 -12.5 41t-38.5 10h-201v-932z" />
<glyph unicode="E" horiz-adv-x="1105" d="M109 0v1550h901v-309h-463v-932h469v-309h-907zM549 938h448v-309h-374z" />
<glyph unicode="F" horiz-adv-x="1050" d="M109 0v1550h870v-309h-432v-1241h-438zM549 905h426v-307h-352z" />
<glyph unicode="G" horiz-adv-x="1349" d="M109 334v893q0 188 67 261t252 73h496q183 0 250 -73t67 -261v-168l-440 -21v174q0 18 -5.5 27t-12 10.5t-21.5 1.5h-172q-11 0 -16.5 -0.5t-12.5 -4t-9.5 -12t-2.5 -22.5v-864q0 -14 2.5 -22.5t9.5 -12t12.5 -4t16.5 -0.5h209l-80 -309h-291q-182 0 -250.5 73.5 t-68.5 260.5zM727 580v247h514v-827h-440v580h-74z" />
<glyph unicode="H" horiz-adv-x="1363" d="M109 0v1550h438v-612h270v612h438v-1550h-438v633h-270v-633h-438z" />
<glyph unicode="I" horiz-adv-x="655" d="M109 0v1550h438v-1550h-438z" />
<glyph unicode="J" horiz-adv-x="1224" d="M37 326v211l405 20v-219q0 -18 5.5 -27t12 -10.5t21.5 -1.5h158q15 0 21.5 1.5t12 10.5t5.5 27v1212h438v-1224q0 -189 -67.5 -262.5t-249.5 -73.5h-445q-182 0 -249.5 73.5t-67.5 262.5z" />
<glyph unicode="K" horiz-adv-x="1318" d="M109 0v1550h440v-1550h-440zM549 795l293 755h454l-290 -755l311 -795h-459z" />
<glyph unicode="L" horiz-adv-x="1015" d="M109 0v1550h438v-1241h442v-309h-880z" />
<glyph unicode="M" horiz-adv-x="2072" d="M109 0v1550h741l186 -1271l187 1271h741v-1550h-420v1237l-215 -1237h-590l-211 1237v-1237h-419z" />
<glyph unicode="N" horiz-adv-x="1646" d="M109 0v1550h716l283 -1167v1167h430v-1550h-715l-284 1167v-1167h-430z" />
<glyph unicode="O" horiz-adv-x="1368" d="M109 324v903q0 188 67 261t252 73h514q125 0 193.5 -33t96.5 -103.5t28 -197.5v-903q0 -187 -68 -260.5t-250 -73.5h-514q-182 0 -250.5 73.5t-68.5 260.5zM547 338q0 -14 2.5 -22.5t9.5 -12t12.5 -4t16.5 -0.5h194q15 0 21.5 1.5t12 10.5t5.5 27v874q0 18 -5.5 27 t-12 10.5t-21.5 1.5h-194q-11 0 -16.5 -0.5t-12.5 -4t-9.5 -12t-2.5 -22.5v-874z" />
<glyph unicode="P" horiz-adv-x="1294" d="M109 0v1550h802q100 0 160 -15.5t97 -58t50 -106t13 -168.5v-379q0 -102 -16.5 -163t-60 -96t-106 -46.5t-169.5 -11.5h-248l-80 293h201q10 0 15 0.5t11.5 4t9.5 12t3 22.5v362q0 15 -3 24t-9.5 12t-11.5 4t-15 1h-203v-1241h-440z" />
<glyph unicode="Q" horiz-adv-x="1372" d="M109 324v903q0 188 67 261t252 73h518q125 0 193.5 -33t96.5 -103.5t28 -197.5v-903q0 -187 -68 -260.5t-250 -73.5h-127l275 -62l88 -282h-406l-90 344h-258q-182 0 -250.5 73.5t-68.5 260.5zM547 338q0 -14 2.5 -22.5t9.5 -12t12.5 -4t16.5 -0.5h196q15 0 21.5 1.5 t12 10.5t5.5 27v874q0 18 -5.5 27t-12 10.5t-21.5 1.5h-196q-11 0 -16.5 -0.5t-12.5 -4t-9.5 -12t-2.5 -22.5v-874z" />
<glyph unicode="R" horiz-adv-x="1331" d="M109 0v1550h804q187 0 253.5 -66t66.5 -251v-244q0 -182 -74.5 -259t-255.5 -77h-61l280 -75l176 -578h-442l-168 629h-141v-629h-438zM547 866h213q11 0 16.5 0.5t12.5 4t9.5 12t2.5 22.5v295q0 28 -9.5 34.5t-31.5 6.5h-213v-375z" />
<glyph unicode="S" horiz-adv-x="1335" d="M100 324v135l441 20v-141q0 -14 2.5 -22.5t9.5 -12t12.5 -4t16.5 -0.5h172q11 0 16.5 0.5t12.5 4t9.5 12t2.5 22.5v260q0 14 -2.5 22.5t-9.5 12t-12.5 4t-16.5 0.5h-326q-186 0 -252.5 66.5t-66.5 252.5v271q0 188 67 261t252 73h473q185 0 252.5 -73t67.5 -261v-137 l-441 -21v143q0 14 -2.5 22.5t-9.5 12t-12.5 4t-16.5 0.5h-151q-11 0 -16.5 -0.5t-12.5 -4t-9.5 -12t-2.5 -22.5v-256q0 -28 9.5 -34.5t31.5 -6.5h327q186 0 253 -66.5t67 -250.5v-274q0 -187 -68 -260.5t-252 -73.5h-495q-184 0 -252 73.5t-68 260.5z" />
<glyph unicode="T" horiz-adv-x="1091" d="M27 1241v309h1038v-309h-299v-1241h-440v1241h-299z" />
<glyph unicode="U" horiz-adv-x="1359" d="M109 324v1226h438v-1212q0 -14 2.5 -22.5t9.5 -12t12.5 -4t16.5 -0.5h184q11 0 16.5 0.5t12.5 4t9.5 12t2.5 22.5v1212h438v-1226q0 -187 -68 -260.5t-251 -73.5h-504q-183 0 -251 73.5t-68 260.5z" />
<glyph unicode="V" horiz-adv-x="1271" d="M27 1550h471l137 -1249l139 1249h471l-254 -1550h-710z" />
<glyph unicode="W" horiz-adv-x="2052" d="M27 1550h469l106 -1259l119 1259h610l119 -1259l104 1259h471l-186 -1550h-696l-117 1288l-117 -1288h-696z" />
<glyph unicode="X" horiz-adv-x="1327" d="M8 0l311 799l-303 751h471l177 -542l178 542h471l-303 -751l309 -799h-473l-182 578l-183 -578h-473z" />
<glyph unicode="Y" horiz-adv-x="1177" d="M6 1550h434l150 -704l149 704h432l-362 -1054v-496h-438v496z" />
<glyph unicode="Z" horiz-adv-x="1126" d="M72 0v307l516 934h-492v309h959v-307l-490 -934h490v-309h-983z" />
<glyph unicode="[" horiz-adv-x="671" d="M96 -350v1900h520v-215h-129v-1472h129v-213h-520z" />
<glyph unicode="\" horiz-adv-x="880" d="M10 1550h342l516 -1550h-342z" />
<glyph unicode="]" horiz-adv-x="671" d="M53 -137h129v1472h-129v215h520v-1900h-520v213z" />
<glyph unicode="^" horiz-adv-x="1003" d="M98 1081l260 469h285l260 -469h-258l-145 267l-144 -267h-258z" />
<glyph unicode="_" horiz-adv-x="989" d="M-10 -49h1009v-195h-1009v195z" />
<glyph unicode="`" horiz-adv-x="827" d="M84 1550h383l262 -356h-254z" />
<glyph unicode="a" horiz-adv-x="1255" d="M80 307v152q0 141 69 202.5t250 61.5h332v123q0 28 -9.5 34.5t-31.5 6.5h-553l21 307h678q186 0 252.5 -67t66.5 -253v-874h-424v500h-186q-11 0 -16.5 -0.5t-12.5 -4t-9.5 -12t-2.5 -22.5v-127q0 -28 9.5 -34.5t31.5 -6.5h184l-78 -293h-252q-187 0 -253 62t-66 245z " />
<glyph unicode="b" d="M100 307v1284h424v-1255q0 -28 9.5 -34.5t31.5 -6.5h158q10 0 15 1t11.5 4t9.5 12t3 24v510q0 14 -3 22.5t-9.5 12t-11.5 4t-15 0.5h-197l82 309h258q187 0 253.5 -65t66.5 -250v-572q0 -184 -67 -250.5t-253 -66.5h-448q-185 0 -251.5 66.5t-66.5 250.5z" />
<glyph unicode="c" d="M100 307v582q0 184 66 249.5t252 65.5h448q187 0 253.5 -65t66.5 -250v-166l-424 -12v143q0 28 -9 34.5t-30 6.5h-158q-11 0 -16.5 -0.5t-12.5 -4.5t-9.5 -12.5t-2.5 -23.5v-516q0 -14 2.5 -22.5t9.5 -12t12.5 -4t16.5 -0.5h158q15 0 21.5 1.5t12 10.5t5.5 27v125 l424 -12v-144q0 -184 -67 -250.5t-253 -66.5h-448q-185 0 -251.5 66.5t-66.5 250.5z" />
<glyph unicode="d" horiz-adv-x="1288" d="M100 317v562q0 185 66.5 250t253.5 65h342v397h426v-1591h-426v885h-199q-10 0 -15 -0.5t-11.5 -4t-9.5 -12t-3 -22.5v-500q0 -15 3 -24t9.5 -12t11.5 -4t15 -1h197l-82 -305h-258q-186 0 -253 66.5t-67 250.5z" />
<glyph unicode="e" horiz-adv-x="1284" d="M100 317v570q0 186 66 251.5t252 65.5h444q188 0 255 -65.5t67 -251.5v-420h-662v-121q0 -28 9.5 -34.5t31.5 -6.5h600l-20 -305h-723q-185 0 -252.5 66.5t-67.5 250.5zM522 688h246v191q0 18 -5.5 27t-12 10.5t-21.5 1.5h-166q-11 0 -16.5 -0.5t-12.5 -4t-9.5 -12 t-2.5 -22.5v-191z" />
<glyph unicode="f" horiz-adv-x="794" d="M20 885v309h136v82q0 185 65.5 250t251.5 65h270v-270h-157q-10 0 -15 -1t-11.5 -4t-9.5 -12t-3 -24v-86h196v-309h-196v-885h-391v885h-136z" />
<glyph unicode="g" d="M100 319v568q0 186 65.5 251.5t252.5 65.5h450q184 0 251 -66t67 -251v-1018q0 -187 -65.5 -253.5t-252.5 -66.5h-731l21 312h565q15 0 21.5 1.5t12 10.5t5.5 27v956q0 18 -5.5 27t-12 10.5t-21.5 1.5h-162q-10 0 -15 -0.5t-11.5 -4t-9.5 -12t-3 -22.5v-508 q0 -14 3 -22.5t9.5 -12t11.5 -4t15 -0.5h199l-82 -309h-260q-185 0 -251.5 66.5t-66.5 252.5z" />
<glyph unicode="h" horiz-adv-x="1284" d="M100 0v1591h424v-1591h-424zM526 885l82 309h256q187 0 253.5 -65t66.5 -250v-879h-424v844q0 28 -9 34.5t-30 6.5h-195z" />
<glyph unicode="i" horiz-adv-x="624" d="M100 0v1194h424v-1194h-424zM100 1343v248h424v-248h-424z" />
<glyph unicode="j" horiz-adv-x="624" d="M-41 -451l21 312h81q15 0 21.5 1.5t12 10.5t5.5 27v1294h424v-1325q0 -186 -67 -253t-252 -67h-246zM100 1343v248h424v-248h-424z" />
<glyph unicode="k" horiz-adv-x="1292" d="M100 0v1591h424v-1591h-424zM524 600l281 594h450l-282 -594l301 -600h-451z" />
<glyph unicode="l" horiz-adv-x="622" d="M100 0v1591h422v-1591h-422z" />
<glyph unicode="m" horiz-adv-x="1931" d="M100 0v1194h424v-1194h-424zM526 885l82 309h250q187 0 253.5 -65t66.5 -250v-879h-424v844q0 28 -9 34.5t-30 6.5h-189zM1180 885l82 309h249q187 0 253.5 -65t66.5 -250v-879h-424v844q0 28 -9 34.5t-30 6.5h-188z" />
<glyph unicode="n" d="M100 0v1194h424v-1194h-424zM526 885l82 309h258q187 0 253.5 -65t66.5 -250v-879h-424v844q0 28 -9 34.5t-30 6.5h-197z" />
<glyph unicode="o" horiz-adv-x="1282" d="M100 307v582q0 184 66 249.5t252 65.5h444q187 0 253.5 -65t66.5 -250v-582q0 -184 -67 -250.5t-253 -66.5h-444q-185 0 -251.5 66.5t-66.5 250.5zM522 338q0 -14 2.5 -22.5t9.5 -12t12.5 -4t16.5 -0.5h158q15 0 21.5 1.5t12 10.5t5.5 27v516q0 28 -9 34.5t-30 6.5h-158 q-11 0 -16.5 -0.5t-12.5 -4.5t-9.5 -12.5t-2.5 -23.5v-516z" />
<glyph unicode="p" d="M100 -395v1589h766q186 0 253 -66.5t67 -250.5v-562q0 -185 -66.5 -250t-253.5 -65h-258l-82 309h197q10 0 15 0.5t11.5 4t9.5 12t3 22.5v498q0 15 -3 24t-9.5 12t-11.5 4t-15 1h-199v-1282h-424z" />
<glyph unicode="q" horiz-adv-x="1284" d="M98 315v570q0 184 67 250.5t253 66.5h448q185 0 251.5 -66.5t66.5 -250.5v-1280h-424v1249q0 28 -9.5 34.5t-31.5 6.5h-158q-10 0 -15 -1t-11.5 -4t-9.5 -12t-3 -24v-506q0 -14 3 -22.5t9.5 -12t11.5 -4t15 -0.5h197l-82 -309h-258q-187 0 -253.5 65t-66.5 250z" />
<glyph unicode="r" horiz-adv-x="937" d="M100 0v1194h422v-1194h-422zM522 868l84 326h309v-326h-393z" />
<glyph unicode="s" horiz-adv-x="1269" d="M90 309v58l424 20v-80q0 -28 9 -34.5t30 -6.5h162q15 0 21.5 1.5t12 11t5.5 28.5v133q0 28 -9 34.5t-30 6.5h-301q-182 0 -249 71.5t-67 240.5v94q0 187 65.5 252t252.5 65h428q187 0 253 -65.5t66 -251.5v-62l-424 -20v82q0 15 -3 24t-9.5 12t-11.5 4t-15 1h-139 q-15 0 -21.5 -1.5t-12 -11t-5.5 -28.5v-125q0 -28 9 -34.5t30 -6.5h301q182 0 250 -72t68 -241v-99q0 -188 -66.5 -253.5t-253.5 -65.5h-452q-186 0 -252 66.5t-66 252.5z" />
<glyph unicode="t" horiz-adv-x="882" d="M23 885v309h141v252l424 61v-313h231v-309h-231v-537q0 -18 5.5 -27t12 -10.5t21.5 -1.5h192v-309h-338q-185 0 -251 66t-66 251v568h-141z" />
<glyph unicode="u" d="M100 315v879h424v-844q0 -28 9 -34.5t30 -6.5h197l-82 -309h-258q-187 0 -253.5 65t-66.5 250zM762 0v1194h424v-1194h-424z" />
<glyph unicode="v" horiz-adv-x="1200" d="M27 1194h436l137 -1016l137 1016h437l-187 -1194h-774z" />
<glyph unicode="w" horiz-adv-x="1857" d="M31 1194h424l100 -952l107 952h534l104 -952l101 952h424l-133 -1194h-664l-100 946l-101 -946h-663z" />
<glyph unicode="x" horiz-adv-x="1202" d="M25 0l213 598l-209 596h430l143 -440l141 440h431l-209 -596l213 -598h-430l-146 444l-147 -444h-430z" />
<glyph unicode="y" horiz-adv-x="1173" d="M31 1194h420l137 -999l133 999h422l-172 -1307q-25 -185 -99 -251t-258 -66h-444l18 289h316q15 0 21.5 1.5t13.5 11t10 28.5l16 100h-360z" />
<glyph unicode="z" horiz-adv-x="1114" d="M74 0v307l465 578h-447v309h948v-305l-465 -580h465v-309h-966z" />
<glyph unicode="{" horiz-adv-x="710" d="M68 532v189h10q36 0 51.5 18.5t15.5 57.5v434q0 186 66.5 252.5t253.5 66.5h192v-215h-82q-22 0 -31 -7.5t-9 -33.5v-454q0 -95 -36.5 -144.5t-121.5 -68.5q85 -19 121.5 -68.5t36.5 -144.5v-508q0 -26 9 -33.5t31 -7.5h82v-215h-192q-187 0 -253.5 66.5t-66.5 252.5v488 q0 39 -15.5 57t-51.5 18h-10z" />
<glyph unicode="|" horiz-adv-x="602" d="M104 -350v1900h406v-1900h-406z" />
<glyph unicode="}" horiz-adv-x="710" d="M53 -135h82q23 0 32 7.5t9 33.5v508q0 95 36.5 144.5t121.5 68.5q-85 19 -121.5 68.5t-36.5 144.5v454q0 26 -9 33.5t-32 7.5h-82v215h193q187 0 253 -66.5t66 -252.5v-434q0 -39 16 -57.5t52 -18.5h10v-189h-10q-36 0 -52 -18t-16 -57v-488q0 -186 -66 -252.5 t-253 -66.5h-193v215z" />
<glyph unicode="~" horiz-adv-x="1011" d="M94 608v295l8 8t24 18.5t41 23.5t57.5 18t74.5 8q62 0 120.5 -18t98 -39.5t94.5 -39.5t109 -18q39 0 75.5 10.5t60 26t41.5 30.5t26 25l8 11v-293q-3 -3 -8 -8.5t-23.5 -20t-40.5 -25t-59 -19.5t-78 -9q-57 0 -114 18.5t-96.5 40t-95 40t-110.5 18.5q-44 0 -84.5 -13 t-68 -34t-39.5 -32t-20 -21z" />
<glyph unicode="&#xa1;" horiz-adv-x="593" d="M92 172l101 543h208l101 -543v-543h-410v543zM109 870v310h376v-310h-376z" />
<glyph unicode="&#xa2;" horiz-adv-x="1208" d="M96 483v594q0 185 66 250.5t252 65.5h100v133h209v-133h98q187 0 253.5 -65.5t66.5 -250.5v-164l-424 -20v149q0 28 -9 34.5t-30 6.5h-117q-11 0 -16.5 -0.5t-12.5 -4.5t-9.5 -12.5t-2.5 -23.5v-528q0 -14 2.5 -22.5t9.5 -12t12.5 -4t16.5 -0.5h117q15 0 21.5 1.5 t12 10.5t5.5 27v131l424 -20v-142q0 -184 -67 -250.5t-253 -66.5h-98v-141h-209v141h-100q-185 0 -251.5 66.5t-66.5 250.5z" />
<glyph unicode="&#xa3;" horiz-adv-x="1083" d="M90 0v309q32 0 62 32t30 99v228h-92v254h92v270q0 87 8 145.5t28.5 105t57 72.5t91.5 39t135 13h444v-310h-284q-12 0 -17 -0.5t-12 -4t-9.5 -12t-2.5 -23.5v-295h272v-254h-272v-185q0 -35 -7 -66t-16.5 -49.5t-19 -32.5t-16.5 -20l-7 -6h471v-309h-936z" />
<glyph unicode="&#xa5;" horiz-adv-x="1177" d="M6 1550h434l148 -704l149 704h432l-295 -854h203v-211h-268v-110h268v-213h-268v-162h-440v162h-273v213h273v110h-273v211h205z" />
<glyph unicode="&#xa6;" horiz-adv-x="622" d="M109 -385v903h405v-903h-405zM109 688v903h405v-903h-405z" />
<glyph unicode="&#xa7;" horiz-adv-x="1257" d="M104 -10v110l406 21v-101q0 -15 2.5 -23.5t9.5 -12t12 -4t17 -0.5h156q12 0 17 0.5t12 4t9.5 12t2.5 23.5v193q0 28 -9.5 34.5t-31.5 6.5h-283q-186 0 -253 66.5t-67 250.5v662q0 185 66.5 251t253.5 66h412q186 0 251.5 -66t65.5 -251v-111l-405 -20v98q0 28 -9.5 34.5 t-31.5 6.5h-156q-11 0 -16.5 -0.5t-12.5 -4.5t-9.5 -12.5t-2.5 -23.5v-192q0 -14 2.5 -22.5t9.5 -12t12.5 -4t16.5 -0.5h285q186 0 251.5 -67t65.5 -253v-659q0 -186 -66.5 -253t-250.5 -67h-412q-186 0 -253 67t-67 253zM510 541q0 -28 9.5 -34.5t31.5 -6.5h197v182 q0 14 -2.5 22.5t-9.5 12t-12.5 4t-16.5 0.5h-197v-180z" />
<glyph unicode="&#xa8;" horiz-adv-x="1013" d="M98 1245v285h318v-285h-318zM598 1245v285h317v-285h-317z" />
<glyph unicode="&#xa9;" horiz-adv-x="1435" d="M76 926q0 130 51 249t137 206t205.5 138.5t249.5 51.5q174 0 322 -87.5t233.5 -236t85.5 -321.5q0 -175 -86 -323.5t-233.5 -235t-321.5 -86.5t-322 86.5t-234.5 235t-86.5 323.5zM197 926q0 -216 153.5 -369.5t368.5 -153.5q141 0 261 70t189.5 190.5t69.5 262.5 q0 106 -41 202t-111 166t-166 111t-202 41t-202.5 -41t-166.5 -111t-111.5 -166t-41.5 -202zM438 887v37q0 62 3 102.5t13 78t27 59.5t46 39t69.5 23.5t97.5 6.5h47q130 0 185 -48.5t55 -168.5v-29l-197 -20v57q0 15 -5 22t-10.5 8t-18.5 1h-68q-11 0 -17 -1t-12 -8.5 t-6 -21.5v-199q0 -12 3 -19t9 -9.5t10 -3t13 -0.5h68q13 0 18.5 1t10.5 8t5 23v54l197 -21v-24q0 -121 -53 -170.5t-176 -49.5h-37q-92 0 -145.5 12.5t-83.5 47.5t-39 82t-9 131z" />
<glyph unicode="&#xaa;" horiz-adv-x="1159" d="M84 702v109q0 111 28.5 170t101.5 87t210 28h274v104q0 28 -9.5 34.5t-31.5 6.5h-526l21 309h600q187 0 253 -65t66 -250v-862h-373v506h-198q-11 0 -16.5 -0.5t-12.5 -4t-9.5 -12t-2.5 -22.5v-117q0 -28 9.5 -34.5t31.5 -6.5h196l-82 -309h-190q-107 0 -169.5 12.5 t-102.5 50.5t-54 99.5t-14 166.5z" />
<glyph unicode="&#xab;" horiz-adv-x="1249" d="M27 776v17l321 434h311l-305 -445l305 -442h-311zM563 776v17l322 434h309l-303 -445l303 -442h-309z" />
<glyph unicode="&#xac;" horiz-adv-x="1120" d="M76 641v287h942v-604h-313v317h-629z" />
<glyph unicode="&#xad;" horiz-adv-x="841" d="M90 641v287h662v-287h-662z" />
<glyph unicode="&#xae;" horiz-adv-x="1435" d="M76 926q0 174 86.5 322.5t235 235.5t323.5 87q173 0 320.5 -87t233 -235.5t85.5 -322.5q0 -131 -50.5 -250.5t-136.5 -206t-204 -137.5t-248 -51q-175 0 -323.5 86.5t-235 235t-86.5 323.5zM199 926q0 -142 69.5 -262.5t190 -190.5t262.5 -70q140 0 260 70t190 190.5 t70 262.5q0 106 -41.5 202.5t-111.5 166t-166 110.5t-201 41q-107 0 -203.5 -41t-166.5 -110.5t-111 -166t-41 -202.5zM457 618v613h311q133 0 174 -31.5t41 -128.5v-55q0 -90 -36.5 -125t-147.5 -35h-15l158 -18l70 -220h-211l-72 238h-65v-238h-207zM664 948h75q12 0 18 1 t11.5 9t5.5 23v68q0 13 -2.5 20t-8.5 10t-10 3.5t-14 0.5h-75v-135z" />
<glyph unicode="&#xaf;" horiz-adv-x="915" d="M109 1253v244h698v-244h-698z" />
<glyph unicode="&#xb0;" horiz-adv-x="874" d="M82 1233q0 148 104 252t252 104t252.5 -104t104.5 -252q0 -149 -104.5 -252.5t-252.5 -103.5t-252 103.5t-104 252.5zM301 1233q0 -57 40 -98t97 -41q55 0 95 41t40 98q0 55 -39.5 94t-95.5 39q-57 0 -97 -39t-40 -94z" />
<glyph unicode="&#xb1;" horiz-adv-x="1222" d="M90 0v223h1043v-223h-1043zM90 651v267h387v315h266v-315h390v-267h-390v-315h-266v315h-387z" />
<glyph unicode="&#xb2;" horiz-adv-x="905" d="M104 743v269q0 92 33 125.5t127 33.5h223q21 0 21 19v156q0 20 -21 20h-69q-6 0 -8.5 -0.5t-6 -2t-5 -6t-1.5 -11.5v-66l-293 20v70q0 92 33 125t127 33h377q94 0 127 -33t33 -125v-156q0 -95 -35 -135.5t-125 -40.5h-223q-6 0 -8.5 -0.5t-6 -2t-5 -5.5t-1.5 -10v-113 h404v-164h-697z" />
<glyph unicode="&#xb3;" horiz-adv-x="901" d="M102 905v76l291 20v-73q0 -9 3 -13t7 -5t11 -1h69q7 0 11 1t7 5t3 13v135q0 9 -3 14t-6.5 5.5t-11.5 0.5h-233v109l211 174h-338v164h672v-139l-189 -179h2h21q100 0 134 -35.5t34 -132.5v-129q0 -100 -32 -135t-128 -35h-375q-93 0 -126.5 33.5t-33.5 126.5z" />
<glyph unicode="&#xb4;" horiz-adv-x="827" d="M84 1194l260 356h385l-393 -356h-252z" />
<glyph unicode="&#xb5;" horiz-adv-x="1396" d="M106 -365v1559h424v-848q0 -13 2.5 -21t9.5 -11.5t12.5 -4t16.5 -0.5h197l-82 -309h-156v-365h-424zM770 317v877h424v-844q0 -15 3 -24t9.5 -12t11.5 -4t15 -1h135v-309h-278q-186 0 -253 66.5t-67 250.5z" />
<glyph unicode="&#xb6;" horiz-adv-x="1265" d="M45 1149v59q0 155 98 248.5t289 93.5h729v-1898h-215v1683h-227v-1683h-217v1155h-70q-190 0 -288.5 94t-98.5 248z" />
<glyph unicode="&#xb7;" horiz-adv-x="495" d="M90 627v317h316v-317h-316z" />
<glyph unicode="&#xb8;" horiz-adv-x="747" d="M109 -336q6 -2 26 -8t32.5 -9.5t33 -8.5t41 -7t41.5 -2q131 0 131 66q0 40 -29 58t-70 18q-48 0 -94 -17l-59 70l137 192h139l-90 -131l2 -2q30 6 66 6q97 0 161 -44.5t64 -135.5q0 -56 -30 -99t-78.5 -67.5t-100.5 -36.5t-104 -12q-123 0 -219 47v123z" />
<glyph unicode="&#xb9;" horiz-adv-x="501" d="M104 762v764l293 20v-784h-293z" />
<glyph unicode="&#xba;" horiz-adv-x="1159" d="M86 692v543q0 185 65.5 250t251.5 65h351q187 0 253 -65t66 -250v-543q0 -185 -66.5 -251t-252.5 -66h-351q-185 0 -251 66.5t-66 250.5zM461 723q0 -18 5.5 -27t12 -10.5t21.5 -1.5h157q15 0 21.5 1.5t12 10.5t5.5 27v477q0 28 -9 34.5t-30 6.5h-157q-15 0 -21.5 -1.5 t-12 -11t-5.5 -28.5v-477z" />
<glyph unicode="&#xbb;" horiz-adv-x="1249" d="M53 340l305 442l-305 445h312l321 -434v-17l-321 -436h-312zM590 340l305 442l-305 445h311l322 -434v-17l-322 -436h-311z" />
<glyph unicode="&#xbc;" horiz-adv-x="1687" d="M104 0l983 1550h152l-983 -1550h-152zM131 762v766l293 18v-784h-293zM827 205v90l82 500h283l-68 -463h109v463h293v-463h57v-127h-57v-185h-293v185h-406z" />
<glyph unicode="&#xbd;" horiz-adv-x="1677" d="M104 0l986 1550h149l-983 -1550h-152zM131 762v766l293 18v-784h-293zM877 20v267q0 92 33.5 125.5t125.5 33.5h226q20 0 20 19v158q0 9 -3.5 14t-6.5 5.5t-10 0.5h-70q-6 0 -8.5 -0.5t-6 -2t-5 -6t-1.5 -11.5v-66l-294 21v69q0 92 33.5 125t125.5 33h379q94 0 127 -33 t33 -125v-158q0 -95 -35 -135.5t-125 -40.5h-223q-6 0 -8.5 -0.5t-6 -2t-5 -5.5t-1.5 -10v-111h404v-164h-698z" />
<glyph unicode="&#xbe;" horiz-adv-x="2009" d="M102 905v76l291 20v-73q0 -9 3 -13t7 -5t11 -1h69q7 0 11 1t7 5t3 13v135q0 9 -3 14t-6.5 5.5t-11.5 0.5h-233v109l211 174h-338v164h672v-139l-189 -179h2h21q100 0 134 -35.5t34 -132.5v-129q0 -100 -32 -135t-128 -35h-375q-93 0 -126.5 33.5t-33.5 126.5zM426 0 l985 1550h150l-983 -1550h-152zM1149 205v90l82 500h282l-67 -463h108v463h293v-463h58v-127h-58v-185h-293v185h-405z" />
<glyph unicode="&#xbf;" horiz-adv-x="1193" d="M102 -25v236q0 193 56.5 262.5t210.5 69.5h90q11 0 16.5 0.5t12.5 4.5t9.5 12.5t2.5 23.5v131h372v-99q0 -140 -23 -212.5t-75.5 -102t-152.5 -29.5h-72q-15 0 -21.5 -1.5t-12 -11t-5.5 -28.5v-268q0 -28 9 -34.5t30 -6.5h125q11 0 16.5 0.5t12.5 4.5t9.5 12.5t2.5 23.5 v139l405 -22v-125q0 -104 -13 -166.5t-49 -103.5t-96 -56.5t-159 -15.5h-367q-110 0 -174.5 16t-101 61t-47.5 108.5t-11 176.5zM496 860v318h381v-318h-381z" />
<glyph unicode="&#xc0;" horiz-adv-x="1361" d="M29 0l282 1550h742l280 -1550h-459l-43 272h-301l-41 -272h-460zM358 2009h383l263 -356h-254zM561 512h242l-123 776z" />
<glyph unicode="&#xc1;" horiz-adv-x="1361" d="M29 0l282 1550h742l280 -1550h-459l-43 272h-301l-41 -272h-460zM362 1653l261 356h385l-394 -356h-252zM561 512h242l-123 776z" />
<glyph unicode="&#xc2;" horiz-adv-x="1361" d="M29 0l282 1550h742l280 -1550h-459l-43 272h-301l-41 -272h-460zM193 1651l264 358h467l243 -358h-331l-156 235l-154 -235h-333zM561 512h242l-123 776z" />
<glyph unicode="&#xc3;" horiz-adv-x="1361" d="M29 0l282 1550h742l280 -1550h-459l-43 272h-301l-41 -272h-460zM258 1653q17 135 82 234.5t166 99.5q44 0 94.5 -16t88.5 -34.5t87 -34.5t90 -16q63 0 92 96h146q-45 -333 -250 -333q-56 0 -120 27t-126 54t-112 27q-35 0 -57 -30t-33 -74h-148zM561 512h242l-123 776z " />
<glyph unicode="&#xc4;" horiz-adv-x="1361" d="M29 0l282 1550h742l280 -1550h-459l-43 272h-301l-41 -272h-460zM272 1653v284h318v-284h-318zM561 512h242l-123 776zM772 1653v284h318v-284h-318z" />
<glyph unicode="&#xc5;" horiz-adv-x="1361" d="M29 0l282 1550h742l280 -1550h-459l-43 272h-301l-41 -272h-460zM453 1759q0 95 66.5 162.5t160.5 67.5q95 0 162 -68t67 -162t-67 -160.5t-162 -66.5q-94 0 -160.5 66.5t-66.5 160.5zM561 512h242l-123 776zM606 1759q0 -31 21.5 -53.5t52.5 -22.5t52.5 22.5t21.5 53.5 t-21.5 53.5t-52.5 22.5t-52.5 -22.5t-21.5 -53.5z" />
<glyph unicode="&#xc6;" horiz-adv-x="1910" d="M2 0l633 1550h1188v-309h-471v-932h477v-309h-883v272h-383l-108 -272h-453zM649 516h297v733zM1354 946h456v-325h-383z" />
<glyph unicode="&#xc7;" horiz-adv-x="1339" d="M106 324v903q0 188 67.5 261t252.5 73h489q125 0 193.5 -33t96.5 -103.5t28 -197.5v-193l-438 -20v198q0 18 -5.5 27t-12 10.5t-21.5 1.5h-170q-11 0 -16.5 -0.5t-12.5 -4t-9.5 -12t-2.5 -22.5v-874q0 -14 2.5 -22.5t9.5 -12t12.5 -4t16.5 -0.5h170q15 0 21.5 1.5 t12 10.5t5.5 27v180l438 -20v-174q0 -187 -68 -260.5t-250 -73.5h-489q-182 0 -251 73.5t-69 260.5zM401 -336q6 -2 26 -8t32.5 -9.5t33 -8.5t41 -7t41.5 -2q132 0 132 66q0 40 -29 58t-70 18q-48 0 -94 -17l-59 70l137 192h139l-90 -131l2 -2q30 6 66 6q97 0 161 -44.5 t64 -135.5q0 -56 -30 -99t-78.5 -67.5t-100.5 -36.5t-104 -12q-124 0 -220 47v123z" />
<glyph unicode="&#xc8;" horiz-adv-x="1105" d="M109 0v1550h901v-309h-463v-932h469v-309h-907zM236 2009h382l263 -356h-254zM549 938h448v-309h-374z" />
<glyph unicode="&#xc9;" horiz-adv-x="1105" d="M109 0v1550h901v-309h-463v-932h469v-309h-907zM236 1649l260 356h385l-394 -356h-251zM549 938h448v-309h-374z" />
<glyph unicode="&#xca;" horiz-adv-x="1105" d="M66 1651l264 358h467l243 -358h-331l-156 235l-154 -235h-333zM109 0v1550h901v-309h-463v-932h469v-309h-907zM549 938h448v-309h-374z" />
<glyph unicode="&#xcb;" horiz-adv-x="1105" d="M109 0v1550h901v-309h-463v-932h469v-309h-907zM143 1640v285h318v-285h-318zM549 938h448v-309h-374zM643 1640v285h318v-285h-318z" />
<glyph unicode="&#xcc;" horiz-adv-x="655" d="M6 2007h383l262 -356h-254zM109 0v1550h438v-1550h-438z" />
<glyph unicode="&#xcd;" horiz-adv-x="655" d="M6 1653l260 356h385l-393 -356h-252zM109 0v1550h438v-1550h-438z" />
<glyph unicode="&#xce;" horiz-adv-x="655" d="M-160 1649l264 358h467l244 -358h-332l-155 235l-154 -235h-334zM109 0v1550h438v-1550h-438z" />
<glyph unicode="&#xcf;" horiz-adv-x="655" d="M-80 1657v285h318v-285h-318zM109 0v1550h438v-1550h-438zM420 1657v285h317v-285h-317z" />
<glyph unicode="&#xd0;" horiz-adv-x="1347" d="M33 641v287h76v622h811q187 0 253 -66t66 -251v-916q0 -185 -66.5 -251t-252.5 -66h-811v641h-76zM547 309h211q11 0 16.5 0.5t12.5 4.5t9.5 12.5t2.5 23.5v850q0 28 -9.5 34.5t-31.5 6.5h-211v-313h127v-287h-127v-332z" />
<glyph unicode="&#xd1;" horiz-adv-x="1630" d="M109 0v1550h716l283 -1167v1167h430v-1550h-715l-284 1167v-1167h-430zM391 1645q17 135 82 234t166 99q67 0 183 -50t177 -50q64 0 93 96h145q-45 -334 -250 -334q-44 0 -95 17t-89 37.5t-86 37.5t-88 17q-35 0 -57 -30t-33 -74h-148z" />
<glyph unicode="&#xd2;" horiz-adv-x="1368" d="M109 324v903q0 188 67 261t252 73h514q125 0 193.5 -33t96.5 -103.5t28 -197.5v-903q0 -187 -68 -260.5t-250 -73.5h-514q-182 0 -250.5 73.5t-68.5 260.5zM360 2009h383l263 -356h-254zM547 338q0 -14 2.5 -22.5t9.5 -12t12.5 -4t16.5 -0.5h194q15 0 21.5 1.5t12 10.5 t5.5 27v874q0 18 -5.5 27t-12 10.5t-21.5 1.5h-194q-11 0 -16.5 -0.5t-12.5 -4t-9.5 -12t-2.5 -22.5v-874z" />
<glyph unicode="&#xd3;" horiz-adv-x="1368" d="M109 324v903q0 188 67 261t252 73h514q125 0 193.5 -33t96.5 -103.5t28 -197.5v-903q0 -187 -68 -260.5t-250 -73.5h-514q-182 0 -250.5 73.5t-68.5 260.5zM360 1653l261 356h385l-394 -356h-252zM547 338q0 -14 2.5 -22.5t9.5 -12t12.5 -4t16.5 -0.5h194q15 0 21.5 1.5 t12 10.5t5.5 27v874q0 18 -5.5 27t-12 10.5t-21.5 1.5h-194q-11 0 -16.5 -0.5t-12.5 -4t-9.5 -12t-2.5 -22.5v-874z" />
<glyph unicode="&#xd4;" horiz-adv-x="1368" d="M109 324v903q0 188 67 261t252 73h514q125 0 193.5 -33t96.5 -103.5t28 -197.5v-903q0 -187 -68 -260.5t-250 -73.5h-514q-182 0 -250.5 73.5t-68.5 260.5zM195 1651l264 358h467l243 -358h-331l-156 235l-154 -235h-333zM547 338q0 -14 2.5 -22.5t9.5 -12t12.5 -4 t16.5 -0.5h194q15 0 21.5 1.5t12 10.5t5.5 27v874q0 18 -5.5 27t-12 10.5t-21.5 1.5h-194q-11 0 -16.5 -0.5t-12.5 -4t-9.5 -12t-2.5 -22.5v-874z" />
<glyph unicode="&#xd5;" horiz-adv-x="1368" d="M109 324v903q0 188 67 261t252 73h514q125 0 193.5 -33t96.5 -103.5t28 -197.5v-903q0 -187 -68 -260.5t-250 -73.5h-514q-182 0 -250.5 73.5t-68.5 260.5zM260 1653q17 135 82 234.5t166 99.5q44 0 94.5 -16t88.5 -34.5t87 -34.5t90 -16q64 0 93 96h145 q-45 -333 -250 -333q-56 0 -120 27t-126 54t-112 27q-35 0 -57 -30t-33 -74h-148zM547 338q0 -14 2.5 -22.5t9.5 -12t12.5 -4t16.5 -0.5h194q15 0 21.5 1.5t12 10.5t5.5 27v874q0 18 -5.5 27t-12 10.5t-21.5 1.5h-194q-11 0 -16.5 -0.5t-12.5 -4t-9.5 -12t-2.5 -22.5v-874z " />
<glyph unicode="&#xd6;" horiz-adv-x="1368" d="M109 324v903q0 188 67 261t252 73h514q125 0 193.5 -33t96.5 -103.5t28 -197.5v-903q0 -187 -68 -260.5t-250 -73.5h-514q-182 0 -250.5 73.5t-68.5 260.5zM274 1653v284h318v-284h-318zM547 338q0 -14 2.5 -22.5t9.5 -12t12.5 -4t16.5 -0.5h194q15 0 21.5 1.5t12 10.5 t5.5 27v874q0 18 -5.5 27t-12 10.5t-21.5 1.5h-194q-11 0 -16.5 -0.5t-12.5 -4t-9.5 -12t-2.5 -22.5v-874zM774 1653v284h318v-284h-318z" />
<glyph unicode="&#xd7;" horiz-adv-x="1669" d="M27 0l585 774l-585 776h444l363 -481l364 481h444l-585 -776l585 -774h-444l-364 481l-363 -481h-444z" />
<glyph unicode="&#xd8;" horiz-adv-x="1368" d="M86 6l57 105q-34 64 -34 213v903q0 188 67 261t252 73h514q80 0 150 -17h188l-57 -102q37 -70 37 -215v-903q0 -187 -68 -260.5t-250 -73.5h-514q-83 0 -149 16h-193zM547 827l233 424h-192q-11 0 -16.5 -0.5t-12.5 -4t-9.5 -12t-2.5 -22.5v-385zM586 299h196 q15 0 21.5 1.5t12 10.5t5.5 27v381z" />
<glyph unicode="&#xd9;" horiz-adv-x="1359" d="M109 324v1226h438v-1212q0 -14 2.5 -22.5t9.5 -12t12.5 -4t16.5 -0.5h184q11 0 16.5 0.5t12.5 4t9.5 12t2.5 22.5v1212h438v-1226q0 -187 -68 -260.5t-251 -73.5h-504q-183 0 -251 73.5t-68 260.5zM356 2009h383l262 -356h-253z" />
<glyph unicode="&#xda;" horiz-adv-x="1359" d="M109 324v1226h438v-1212q0 -14 2.5 -22.5t9.5 -12t12.5 -4t16.5 -0.5h184q11 0 16.5 0.5t12.5 4t9.5 12t2.5 22.5v1212h438v-1226q0 -187 -68 -260.5t-251 -73.5h-504q-183 0 -251 73.5t-68 260.5zM356 1651l260 356h385l-393 -356h-252z" />
<glyph unicode="&#xdb;" horiz-adv-x="1359" d="M109 324v1226h438v-1212q0 -14 2.5 -22.5t9.5 -12t12.5 -4t16.5 -0.5h184q11 0 16.5 0.5t12.5 4t9.5 12t2.5 22.5v1212h438v-1226q0 -187 -68 -260.5t-251 -73.5h-504q-183 0 -251 73.5t-68 260.5zM190 1651l265 358h467l243 -358h-331l-156 235l-154 -235h-334z" />
<glyph unicode="&#xdc;" horiz-adv-x="1359" d="M109 324v1226h438v-1212q0 -14 2.5 -22.5t9.5 -12t12.5 -4t16.5 -0.5h184q11 0 16.5 0.5t12.5 4t9.5 12t2.5 22.5v1212h438v-1226q0 -187 -68 -260.5t-251 -73.5h-504q-183 0 -251 73.5t-68 260.5zM270 1653v284h318v-284h-318zM770 1653v284h317v-284h-317z" />
<glyph unicode="&#xdd;" horiz-adv-x="1179" d="M6 1550h434l150 -704l149 704h432l-362 -1054v-496h-438v496zM266 1653l260 356h385l-393 -356h-252z" />
<glyph unicode="&#xde;" horiz-adv-x="1271" d="M100 0v1591h424v-399h342q71 0 121.5 -8.5t86 -28.5t57 -46.5t33.5 -71t16 -92t4 -118.5v-141q0 -102 -14 -164.5t-51 -104t-97 -57.5t-156 -16h-258l-82 309h197q10 0 15 0.5t11.5 4t9.5 12t3 22.5v152q0 14 -3 22.5t-9.5 12t-11.5 4t-15 0.5h-199v-883h-424z" />
<glyph unicode="&#xdf;" horiz-adv-x="1341" d="M106 0v1198q0 114 13 180.5t52 109.5t102.5 58t172.5 15h451q75 0 126.5 -6t90.5 -23t61.5 -40.5t36.5 -64.5t18.5 -88.5t4.5 -119.5v-95q0 -164 -53.5 -242t-190.5 -91q75 -9 123 -33t74.5 -68.5t36.5 -102.5t10 -147v-86q0 -114 -12.5 -179t-52 -106.5t-102.5 -55 t-173 -13.5h-274v299h135q15 0 21.5 1.5t12 10.5t5.5 27v278q0 31 -13 40.5t-37 9.5h-124v254h124q24 0 37 10t13 39v252q0 18 -5.5 27t-12 10.5t-21.5 1.5h-170q-15 0 -21.5 -1.5t-12 -10.5t-5.5 -27v-1221h-441z" />
<glyph unicode="&#xe0;" horiz-adv-x="1253" d="M80 307v152q0 141 69 202.5t250 61.5h332v123q0 28 -9.5 34.5t-31.5 6.5h-553l21 307h678q186 0 252.5 -67t66.5 -253v-874h-424v500h-186q-11 0 -16.5 -0.5t-12.5 -4t-9.5 -12t-2.5 -22.5v-127q0 -28 9.5 -34.5t31.5 -6.5h184l-78 -293h-252q-187 0 -253 62t-66 245z M303 1640h383l262 -356h-254z" />
<glyph unicode="&#xe1;" horiz-adv-x="1253" d="M80 307v152q0 141 69 202.5t250 61.5h332v123q0 28 -9.5 34.5t-31.5 6.5h-553l21 307h678q186 0 252.5 -67t66.5 -253v-874h-424v500h-186q-11 0 -16.5 -0.5t-12.5 -4t-9.5 -12t-2.5 -22.5v-127q0 -28 9.5 -34.5t31.5 -6.5h184l-78 -293h-252q-187 0 -253 62t-66 245z M303 1280l260 356h385l-393 -356h-252z" />
<glyph unicode="&#xe2;" horiz-adv-x="1253" d="M80 307v152q0 141 69 202.5t250 61.5h332v123q0 28 -9.5 34.5t-31.5 6.5h-553l21 307h678q186 0 252.5 -67t66.5 -253v-874h-424v500h-186q-11 0 -16.5 -0.5t-12.5 -4t-9.5 -12t-2.5 -22.5v-127q0 -28 9.5 -34.5t31.5 -6.5h184l-78 -293h-252q-187 0 -253 62t-66 245z M137 1278l264 358h467l244 -358h-332l-155 235l-154 -235h-334z" />
<glyph unicode="&#xe3;" horiz-adv-x="1253" d="M80 307v152q0 141 69 202.5t250 61.5h332v123q0 28 -9.5 34.5t-31.5 6.5h-553l21 307h678q186 0 252.5 -67t66.5 -253v-874h-424v500h-186q-11 0 -16.5 -0.5t-12.5 -4t-9.5 -12t-2.5 -22.5v-127q0 -28 9.5 -34.5t31.5 -6.5h184l-78 -293h-252q-187 0 -253 62t-66 245z M203 1292q17 135 82 234.5t166 99.5q67 0 183 -50t177 -50q63 0 92 96h146q-45 -334 -250 -334q-44 0 -95 17t-89 37.5t-86.5 37.5t-88.5 17q-64 0 -90 -105h-147z" />
<glyph unicode="&#xe4;" horiz-adv-x="1253" d="M80 307v152q0 141 69 202.5t250 61.5h332v123q0 28 -9.5 34.5t-31.5 6.5h-553l21 307h678q186 0 252.5 -67t66.5 -253v-874h-424v500h-186q-11 0 -16.5 -0.5t-12.5 -4t-9.5 -12t-2.5 -22.5v-127q0 -28 9.5 -34.5t31.5 -6.5h184l-78 -293h-252q-187 0 -253 62t-66 245z M217 1313v284h318v-284h-318zM717 1313v284h317v-284h-317z" />
<glyph unicode="&#xe5;" horiz-adv-x="1253" d="M80 307v152q0 141 69 202.5t250 61.5h332v123q0 28 -9.5 34.5t-31.5 6.5h-553l21 307h678q186 0 252.5 -67t66.5 -253v-874h-424v500h-186q-11 0 -16.5 -0.5t-12.5 -4t-9.5 -12t-2.5 -22.5v-127q0 -28 9.5 -34.5t31.5 -6.5h184l-78 -293h-252q-187 0 -253 62t-66 245z M397 1452q0 95 67 162t161 67q95 0 162 -67.5t67 -161.5t-67 -160.5t-162 -66.5q-94 0 -161 66.5t-67 160.5zM551 1452q0 -31 21.5 -53.5t52.5 -22.5q30 0 51.5 22.5t21.5 53.5t-21.5 53.5t-51.5 22.5q-31 0 -52.5 -22.5t-21.5 -53.5z" />
<glyph unicode="&#xe6;" horiz-adv-x="1923" d="M86 307v137q0 142 68.5 203.5t248.5 61.5h332v145q0 18 -5.5 27t-12 10.5t-21.5 1.5h-553l21 301h1335q187 0 253.5 -67t66.5 -253v-399h-660v-125q0 -28 9.5 -34.5t31.5 -6.5h598l-20 -309h-723q-96 0 -154.5 13t-97 48.5t-53.5 93.5t-15 152v217h-186q-15 0 -21.5 -1.5 t-12 -10.5t-5.5 -27v-135q0 -28 9 -34.5t30 -6.5h184l-82 -309h-248q-96 0 -154 13t-96 48.5t-52.5 93.5t-14.5 152zM1159 664h246v204q0 14 -2.5 22.5t-9.5 12t-12.5 4t-16.5 0.5h-164q-11 0 -16.5 -0.5t-12.5 -4t-9.5 -12t-2.5 -22.5v-204z" />
<glyph unicode="&#xe7;" horiz-adv-x="1282" d="M96 307v582q0 184 66 249.5t252 65.5h448q187 0 253.5 -65t66.5 -250v-166l-424 -12v143q0 28 -9 34.5t-30 6.5h-158q-11 0 -16.5 -0.5t-12.5 -4.5t-9.5 -12.5t-2.5 -23.5v-516q0 -14 2.5 -22.5t9.5 -12t12.5 -4t16.5 -0.5h158q15 0 21.5 1.5t12 10.5t5.5 27v125l424 -12 v-144q0 -184 -67 -250.5t-253 -66.5h-448q-185 0 -251.5 66.5t-66.5 250.5zM375 -336q6 -2 26 -8t32.5 -9.5t33 -8.5t41 -7t41.5 -2q131 0 131 66q0 41 -28.5 58.5t-69.5 17.5q-49 0 -95 -17l-59 70l137 192h140l-91 -131l2 -2q30 6 66 6q97 0 161 -44.5t64 -135.5 q0 -56 -30 -99t-78.5 -67.5t-100.5 -36.5t-104 -12q-123 0 -219 47v123z" />
<glyph unicode="&#xe8;" horiz-adv-x="1282" d="M100 317v570q0 186 66 251.5t252 65.5h444q188 0 255 -65.5t67 -251.5v-420h-662v-121q0 -28 9.5 -34.5t31.5 -6.5h600l-20 -305h-723q-185 0 -252.5 66.5t-67.5 250.5zM317 1636h383l263 -356h-254zM522 688h246v191q0 18 -5.5 27t-12 10.5t-21.5 1.5h-166 q-11 0 -16.5 -0.5t-12.5 -4t-9.5 -12t-2.5 -22.5v-191z" />
<glyph unicode="&#xe9;" horiz-adv-x="1282" d="M100 317v570q0 186 66 251.5t252 65.5h444q188 0 255 -65.5t67 -251.5v-420h-662v-121q0 -28 9.5 -34.5t31.5 -6.5h600l-20 -305h-723q-185 0 -252.5 66.5t-67.5 250.5zM317 1280l261 356h385l-394 -356h-252zM522 688h246v191q0 18 -5.5 27t-12 10.5t-21.5 1.5h-166 q-11 0 -16.5 -0.5t-12.5 -4t-9.5 -12t-2.5 -22.5v-191z" />
<glyph unicode="&#xea;" horiz-adv-x="1282" d="M100 317v570q0 186 66 251.5t252 65.5h444q188 0 255 -65.5t67 -251.5v-420h-662v-121q0 -28 9.5 -34.5t31.5 -6.5h600l-20 -305h-723q-185 0 -252.5 66.5t-67.5 250.5zM152 1278l264 358h467l243 -358h-331l-156 235l-154 -235h-333zM522 688h246v191q0 18 -5.5 27 t-12 10.5t-21.5 1.5h-166q-11 0 -16.5 -0.5t-12.5 -4t-9.5 -12t-2.5 -22.5v-191z" />
<glyph unicode="&#xeb;" horiz-adv-x="1282" d="M100 317v570q0 186 66 251.5t252 65.5h444q188 0 255 -65.5t67 -251.5v-420h-662v-121q0 -28 9.5 -34.5t31.5 -6.5h600l-20 -305h-723q-185 0 -252.5 66.5t-67.5 250.5zM231 1313v284h318v-284h-318zM522 688h246v191q0 18 -5.5 27t-12 10.5t-21.5 1.5h-166 q-11 0 -16.5 -0.5t-12.5 -4t-9.5 -12t-2.5 -22.5v-191zM731 1313v284h318v-284h-318z" />
<glyph unicode="&#xec;" horiz-adv-x="622" d="M-10 1636h383l262 -356h-254zM100 0v1194h424v-1194h-424z" />
<glyph unicode="&#xed;" horiz-adv-x="622" d="M-10 1280l260 356h385l-393 -356h-252zM100 0v1194h424v-1194h-424z" />
<glyph unicode="&#xee;" horiz-adv-x="622" d="M-176 1278l264 358h467l244 -358h-332l-156 235l-153 -235h-334zM100 0v1194h424v-1194h-424z" />
<glyph unicode="&#xef;" horiz-adv-x="622" d="M-96 1313v284h317v-284h-317zM100 0v1194h424v-1194h-424zM403 1313v284h318v-284h-318z" />
<glyph unicode="&#xf0;" horiz-adv-x="1304" d="M98 317v562q0 185 66.5 250t253.5 65h342v94h-230v203h230v100h426v-100h100v-203h-100v-1288h-426v885h-199q-10 0 -15 -0.5t-11.5 -4t-9.5 -12t-3 -22.5v-500q0 -15 3 -24t9.5 -12t11.5 -4t15 -1h197l-82 -305h-258q-186 0 -253 66.5t-67 250.5z" />
<glyph unicode="&#xf1;" d="M98 0v1194h424v-1194h-424zM219 1276q17 135 82 234.5t166 99.5q67 0 183 -50.5t177 -50.5q64 0 93 97h145q-45 -334 -250 -334q-56 0 -120 27t-126 54t-112 27q-35 0 -57 -30t-33 -74h-148zM524 885l82 309h258q187 0 253.5 -65t66.5 -250v-879h-424v844q0 28 -9 34.5 t-30 6.5h-197z" />
<glyph unicode="&#xf2;" d="M100 307v582q0 184 66 249.5t252 65.5h444q187 0 253.5 -65t66.5 -250v-582q0 -184 -67 -250.5t-253 -66.5h-444q-185 0 -251.5 66.5t-66.5 250.5zM319 1636h383l263 -356h-254zM522 338q0 -14 2.5 -22.5t9.5 -12t12.5 -4t16.5 -0.5h158q15 0 21.5 1.5t12 10.5t5.5 27 v516q0 28 -9 34.5t-30 6.5h-158q-11 0 -16.5 -0.5t-12.5 -4.5t-9.5 -12.5t-2.5 -23.5v-516z" />
<glyph unicode="&#xf3;" d="M100 307v582q0 184 66 249.5t252 65.5h444q187 0 253.5 -65t66.5 -250v-582q0 -184 -67 -250.5t-253 -66.5h-444q-185 0 -251.5 66.5t-66.5 250.5zM319 1280l261 356h385l-394 -356h-252zM522 338q0 -14 2.5 -22.5t9.5 -12t12.5 -4t16.5 -0.5h158q15 0 21.5 1.5t12 10.5 t5.5 27v516q0 28 -9 34.5t-30 6.5h-158q-11 0 -16.5 -0.5t-12.5 -4.5t-9.5 -12.5t-2.5 -23.5v-516z" />
<glyph unicode="&#xf4;" d="M100 307v582q0 184 66 249.5t252 65.5h444q187 0 253.5 -65t66.5 -250v-582q0 -184 -67 -250.5t-253 -66.5h-444q-185 0 -251.5 66.5t-66.5 250.5zM152 1278l264 358h467l243 -358h-331l-156 235l-154 -235h-333zM522 338q0 -14 2.5 -22.5t9.5 -12t12.5 -4t16.5 -0.5h158 q15 0 21.5 1.5t12 10.5t5.5 27v516q0 28 -9 34.5t-30 6.5h-158q-11 0 -16.5 -0.5t-12.5 -4.5t-9.5 -12.5t-2.5 -23.5v-516z" />
<glyph unicode="&#xf5;" d="M100 307v582q0 184 66 249.5t252 65.5h444q187 0 253.5 -65t66.5 -250v-582q0 -184 -67 -250.5t-253 -66.5h-444q-185 0 -251.5 66.5t-66.5 250.5zM219 1292q17 135 82 234.5t166 99.5q67 0 183 -50t177 -50q64 0 93 96h145q-45 -334 -250 -334q-44 0 -95 17t-89 37.5 t-86 37.5t-88 17q-64 0 -90 -105h-148zM522 338q0 -14 2.5 -22.5t9.5 -12t12.5 -4t16.5 -0.5h158q15 0 21.5 1.5t12 10.5t5.5 27v516q0 28 -9 34.5t-30 6.5h-158q-11 0 -16.5 -0.5t-12.5 -4.5t-9.5 -12.5t-2.5 -23.5v-516z" />
<glyph unicode="&#xf6;" d="M100 307v582q0 184 66 249.5t252 65.5h444q187 0 253.5 -65t66.5 -250v-582q0 -184 -67 -250.5t-253 -66.5h-444q-185 0 -251.5 66.5t-66.5 250.5zM233 1313v284h318v-284h-318zM522 338q0 -14 2.5 -22.5t9.5 -12t12.5 -4t16.5 -0.5h158q15 0 21.5 1.5t12 10.5t5.5 27 v516q0 28 -9 34.5t-30 6.5h-158q-11 0 -16.5 -0.5t-12.5 -4.5t-9.5 -12.5t-2.5 -23.5v-516zM733 1313v284h318v-284h-318z" />
<glyph unicode="&#xf7;" horiz-adv-x="1099" d="M72 641v287h956v-287h-956zM377 199v317h350v-317h-350zM377 1051v317h350v-317h-350z" />
<glyph unicode="&#xf8;" d="M80 6l59 86q-39 66 -39 215v582q0 184 66 249.5t252 65.5h444q93 0 162 -16h180l-61 -88q39 -63 39 -211v-582q0 -184 -67 -250.5t-253 -66.5h-444q-92 0 -158 16h-180zM522 635l178 260h-137q-11 0 -16.5 -0.5t-12.5 -4.5t-9.5 -12.5t-2.5 -23.5v-219zM582 299h139 q15 0 21.5 1.5t12 10.5t5.5 27v217z" />
<glyph unicode="&#xf9;" d="M98 315v879h424v-844q0 -28 9 -34.5t30 -6.5h197l-82 -309h-258q-187 0 -253.5 65t-66.5 250zM319 1636h383l263 -356h-254zM760 0v1194h424v-1194h-424z" />
<glyph unicode="&#xfa;" d="M98 315v879h424v-844q0 -28 9 -34.5t30 -6.5h197l-82 -309h-258q-187 0 -253.5 65t-66.5 250zM319 1280l261 356h385l-394 -356h-252zM760 0v1194h424v-1194h-424z" />
<glyph unicode="&#xfb;" d="M98 315v879h424v-844q0 -28 9 -34.5t30 -6.5h197l-82 -309h-258q-187 0 -253.5 65t-66.5 250zM154 1278l264 358h467l243 -358h-331l-156 235l-154 -235h-333zM760 0v1194h424v-1194h-424z" />
<glyph unicode="&#xfc;" d="M98 315v879h424v-844q0 -28 9 -34.5t30 -6.5h197l-82 -309h-258q-187 0 -253.5 65t-66.5 250zM233 1329v285h318v-285h-318zM733 1329v285h318v-285h-318zM760 0v1194h424v-1194h-424z" />
<glyph unicode="&#xfd;" horiz-adv-x="1173" d="M31 1194h420l137 -999l133 999h422l-172 -1307q-25 -185 -99 -251t-258 -66h-444l18 289h316q15 0 21.5 1.5t13.5 11t10 28.5l16 100h-360zM264 1280l260 356h385l-393 -356h-252z" />
<glyph unicode="&#xfe;" horiz-adv-x="1288" d="M100 -350v1941h424v-1282h199q10 0 15 0.5t11.5 4t9.5 12t3 22.5v496q0 14 -3 22.5t-9.5 12t-11.5 4t-15 0.5h-197l82 309h230q114 0 179 -14t104.5 -56t52 -105.5t12.5 -176.5v-488q0 -102 -13.5 -165.5t-49.5 -107.5t-97.5 -61.5t-159.5 -17.5h-342v-350h-424z" />
<glyph unicode="&#xff;" horiz-adv-x="1173" d="M31 1194h420l137 -999l133 999h422l-172 -1307q-25 -185 -99 -251t-258 -66h-444l18 289h316q15 0 21.5 1.5t13.5 11t10 28.5l16 100h-360zM176 1327v285h318v-285h-318zM676 1327v285h317v-285h-317z" />
<glyph unicode="&#x152;" horiz-adv-x="1810" d="M106 334v880q0 189 68 262.5t252 73.5h1294v-309h-460v-932h469v-309h-1303q-182 0 -251 73.5t-69 260.5zM547 340q0 -28 9.5 -34.5t31.5 -6.5h231v950h-231q-11 0 -16.5 -0.5t-12.5 -4t-9.5 -12t-2.5 -22.5v-870zM1262 936h448v-307h-375z" />
<glyph unicode="&#x153;" horiz-adv-x="1947" d="M100 317v572q0 184 66 249.5t252 65.5h342q146 0 213 -37q67 37 211 37h342q188 0 254.5 -65.5t66.5 -251.5v-416h-661v-125q0 -28 9.5 -34.5t31.5 -6.5h600l-21 -305h-620q-146 0 -213 37q-67 -37 -213 -37h-342q-185 0 -251.5 66.5t-66.5 250.5zM522 332 q0 -14 2.5 -22.5t9.5 -12t12.5 -4t16.5 -0.5h158q15 0 21.5 1.5t12 10.5t5.5 27v522q0 28 -9 34.5t-30 6.5h-158q-11 0 -16.5 -0.5t-12.5 -4.5t-9.5 -12.5t-2.5 -23.5v-522zM1186 678h246v201q0 18 -5.5 27t-12 10.5t-21.5 1.5h-166q-11 0 -16.5 -0.5t-12.5 -4t-9.5 -12 t-2.5 -22.5v-201z" />
<glyph unicode="&#x178;" horiz-adv-x="1179" d="M6 1550h434l150 -704l149 704h432l-362 -1054v-496h-438v496zM180 1636v285h318v-285h-318zM680 1636v285h317v-285h-317z" />
<glyph unicode="&#x2c6;" horiz-adv-x="1191" d="M106 1192l265 358h467l243 -358h-331l-156 235l-154 -235h-334z" />
<glyph unicode="&#x2dc;" horiz-adv-x="1062" d="M109 1206q11 86 40 159t83.5 124t123.5 51q66 0 183 -50t178 -50q63 0 92 96h145q-45 -334 -249 -334q-44 0 -95 17t-89 37.5t-86.5 37.5t-88.5 17q-64 0 -90 -105h-147z" />
<glyph unicode="&#x2000;" horiz-adv-x="1004" />
<glyph unicode="&#x2001;" horiz-adv-x="2009" />
<glyph unicode="&#x2002;" horiz-adv-x="1004" />
<glyph unicode="&#x2003;" horiz-adv-x="2009" />
<glyph unicode="&#x2004;" horiz-adv-x="669" />
<glyph unicode="&#x2005;" horiz-adv-x="502" />
<glyph unicode="&#x2006;" horiz-adv-x="334" />
<glyph unicode="&#x2007;" horiz-adv-x="334" />
<glyph unicode="&#x2008;" horiz-adv-x="251" />
<glyph unicode="&#x2009;" horiz-adv-x="401" />
<glyph unicode="&#x200a;" horiz-adv-x="111" />
<glyph unicode="&#x2010;" horiz-adv-x="841" d="M90 641v287h662v-287h-662z" />
<glyph unicode="&#x2011;" horiz-adv-x="841" d="M90 641v287h662v-287h-662z" />
<glyph unicode="&#x2012;" horiz-adv-x="841" d="M90 641v287h662v-287h-662z" />
<glyph unicode="&#x2013;" horiz-adv-x="1101" d="M72 641v287h956v-287h-956z" />
<glyph unicode="&#x2014;" horiz-adv-x="1691" d="M72 641v287h1546v-287h-1546z" />
<glyph unicode="&#x2018;" horiz-adv-x="501" d="M76 1044v316l233 227h105l-135 -225h147v-318h-350z" />
<glyph unicode="&#x2019;" horiz-adv-x="501" d="M76 1233v317h350v-315l-233 -227h-105l135 225h-147z" />
<glyph unicode="&#x201a;" horiz-adv-x="501" d="M76 0v317h350v-315l-233 -227h-105l135 225h-147z" />
<glyph unicode="&#x201c;" horiz-adv-x="946" d="M76 1044v316l233 227h105l-135 -225h147v-318h-350zM522 1044v316l232 227h104l-133 -225h145v-318h-348z" />
<glyph unicode="&#x201d;" horiz-adv-x="946" d="M76 1233v317h350v-315l-233 -227h-105l135 225h-147zM522 1233v317h348v-315l-231 -227h-107l136 225h-146z" />
<glyph unicode="&#x201e;" horiz-adv-x="946" d="M76 0v317h350v-315l-233 -227h-105l135 225h-147zM522 0v317h348v-315l-231 -227h-107l136 225h-146z" />
<glyph unicode="&#x2022;" horiz-adv-x="659" d="M76 788q0 105 74.5 179.5t179.5 74.5q104 0 178 -75t74 -179q0 -105 -73.5 -178t-178.5 -73q-106 0 -180 73t-74 178z" />
<glyph unicode="&#x2026;" horiz-adv-x="1406" d="M76 0v317h317v-317h-317zM545 0v317h317v-317h-317zM1014 0v317h317v-317h-317z" />
<glyph unicode="&#x202f;" horiz-adv-x="401" />
<glyph unicode="&#x2039;" horiz-adv-x="712" d="M45 776v17l322 434h311l-305 -445l305 -442h-311z" />
<glyph unicode="&#x203a;" horiz-adv-x="712" d="M37 340l303 442l-303 445h309l322 -434v-17l-322 -436h-309z" />
<glyph unicode="&#x205f;" horiz-adv-x="502" />
<glyph unicode="&#x20ac;" horiz-adv-x="1323" d="M16 600v113h93v108h-93v113h93v293q0 188 67 261t252 73h487q185 0 252.5 -73t67.5 -261v-166l-440 -17v168q0 14 -3 22.5t-9.5 12t-11.5 4t-15 0.5h-168q-11 0 -16.5 -0.5t-12.5 -4t-9.5 -12t-2.5 -22.5v-278h203v-113h-203v-108h203v-113h-203v-262q0 -14 2.5 -22.5 t9.5 -12t12.5 -4t16.5 -0.5h168q10 0 15 0.5t11.5 4t9.5 12t3 22.5v151l440 -16v-149q0 -187 -68 -260.5t-252 -73.5h-487q-183 0 -251 73.5t-68 260.5v276h-93z" />
<glyph unicode="&#x2122;" horiz-adv-x="2398" d="M86 1288v262h778v-262h-217v-690h-342v690h-219zM1004 598v952h512l151 -807l150 807h514v-952h-328v748l-160 -748h-352l-162 739v-739h-325z" />
<glyph unicode="&#xfb01;" horiz-adv-x="1417" d="M12 885v309h135v82q0 184 66 249.5t252 65.5h270v-270h-157q-10 0 -15 -1t-11.5 -4t-9.5 -12t-3 -24v-86h196v-309h-196v-885h-392v885h-135zM891 0v1194h424v-1194h-424zM891 1343v248h424v-248h-424z" />
<glyph unicode="&#xfb02;" horiz-adv-x="1413" d="M12 885v309h135v82q0 184 66 249.5t252 65.5h270v-270h-157q-10 0 -15 -1t-11.5 -4t-9.5 -12t-3 -24v-86h196v-309h-196v-885h-392v885h-135zM889 0v1591h422v-1591h-422z" />
</font>
</defs>
</svg>
